テクノMIXES情報ブログ          (BODYブログ)

_

外国サイトでダウンロードしたMIXES曲をURLと説明で紹介
HOUSE/TECHNO/TRANCEのMIXES/MP3情報たっぷり!
またテクノについても語っていきます。古い記事でもコメント歓迎
 
<< October 2018 | 1 2 3 4 5 6 7 8 9 10 11 12 13 14 15 16 17 18 19 20 21 22 23 24 25 26 27 28 29 30 31 >>
   Today: 
Yesterday: 

ブログ更新を早めたいなら
クリック協力を↓

ブログ村音楽

こちらにも協力を↓ 月額263円からのかわいいサーバー!ロリポップ!
サウンドハウス
↑DJ機材お買い物にはぜひ

管理人のサイトに行く

管理者編集画面

カウンタ提供eucaly.net

45Radio.com

RSS1.0

Atom0.3

JUGEM

(株)paperboy&co.

アンケート
第一回:好きな(MIXES)ジャンル
HOUSE全般系
TRANCE 一般系
TRANCE PSY系
PROGESSIVE系
TECHNO系
BREAKS系
DNB系
HARDCORE系
DOWNTEMPO系
RAP系

<< 日本DJのMIX公開サイト1 | main | ガバの入門的アルバム >>
プログレッシブ・ブレイクビーツMIXES
今日紹介するのは私が2002年以降もっとも好きなジャンルである
『プログレッシブ・ブレイクビーツ(Progressive BreakBeats)』の紹介です。

このジャンルは、『プログレッシブ・ハウス(Progressive House)』、『プログレッシブ・トランス(Progressive Trance)』の発展系のジャンルと言っていいでしょう。

このブログの左で紹介中のアーティスト”BT”や”Hybrid”そして”way out west”など、私のもっとも大好きなテクノアーティストたちが得意とするジャンルです。

 トランスでは『プログレッシブ・トランス』は人気ですが、この『プログレッシブ・ブレイクビーツ』に関しては案外知らない人もいるかもしれませんね。
『プログレトランス』はテクノ中級者に人気のジャンルですが、その上に行くためにはこの『ブログレッシブブレイクビーツ』を聴くといいと思います。『ブレイクビーツ』にテクノ音の楽しみがふんだんに入っています。

私の中で、これほどすばらしい『ブレイクビーツ(Break Beat)』はほかにないと思っています。『ブレイクビーツ』の最強のジャンルと言っていいでしょう。
★超お勧めジャンル!!!


では、早速ジャンル紹介していきましょう。
ラブ『プログレッシブ・ブレイクビーツ(Progressive BreakBeats)』は、主にブレイクビーツの最新進化系ジャンルで、どのジャンルにもとらわれない自由なブレイクが魅力です。(外国では『プログレブレイクス』とも呼ばれます)
では、具体的にどのようなジャンルの音が入っているかと言うと、ここではわかりやすくジャンルで教えて行きたいと思います
(【】内のジャンルは作ったアーティスト本人が言っているジャンルで、まだジャンルとしては認知されていません。)
主にプログレッシブ・ブレイクビーツに入っている音↓
「ブレイクビーツ+トランス【ブレイク・トランス?】)」
「シンフォニック+ブレイクビーツ【シンフォニック・ブレイクス?】」
「ビッグビート+テクノ【テック・ビッグビートビート?】」
「ビッグビート+トランス【ビッグビートビート・トランス?】」
「ハウス+ブレイクビーツ【ハウシー・ブレイクス?】」
などがその代表で、その可能性はまだまだ未知の部分があります。
ようは、まだ出会ったことのない「ジャンル」を『ブレイクビーツ』にくっつけたって言うのが正解かな。

音楽的にわかりやすく言うなら『ブレイクビーツ』はダンス音楽ですが、家でも聴けてノリノリになっちゃうジャンル。それが『プログレッシブ・ブレイクビーツ』だと思っています。


そんなもっとも最新のテクノ音楽ジャンル『プログレッシブ・ブレイクビーツ』を聴いてみましょう!
『プログレトランス』や『プログレハウス』好きはもちろんハマるし、そのほか『ブレイクビーツ』が好きな人もハマること間違いなし!!

★『プログレッシブ・ブレイクビーツ』★↓

拍手80M↓(「ブレイクビーツ+トランス【ブレイク・トランス?】中心で、後半は「ビッグビート+テクノ【テック・ブレイクビート?】」中心かな)
試聴(外国サイトから許可をもらいリンクを引いています。)
http://beatman.demoscene.hu/Beatman_and_Ludmilla_
pres_Breakoutbreeze-The_Progressive_Breaks_Session.mp3


グッド90M↓(「ブレイクビーツ+トランス【ブレイク・トランス?】中心かな)
試聴(外国サイトから許可をもらいリンクを引いています。)
http://beatman.hu/
Beatman_and_Ludmilla-Breakout_Breeze_Line_0716.mp3


拍手110M↓(前半15分くらいまで「シンフォニック+ブレイクビーツ【シンフォニック・ブレイクス?】」で、後半プログレッシブブレイクビーツ色々。)
試聴(外国サイトから許可をもらいリンクを引いています。)
http://nowsound.hu/mixes/beatman-nowsound_exposure.mp3

グッド110M↓(「ビックビート+テクノ【テック・ビックビート?】」、18分あたりから40分あたりまで「ハウス+ブレイクビーツ【ハウシー・ブレイクス?】、ですね。」)
試聴(外国サイトから許可をもらいリンクを引いています。)
http://beatman.demoscene.hu/beatmanludmilla_ministryofsound.mp3

拍手95M↓(「ビッグビート+テクノ【テック・ビッグビート?】」中心かな)
試聴(外国サイトから許可をもらいリンクを引いています。)
http://beatman.demoscene.hu/
beatmanludmilla_breakoutbreeze_20050129.mp3


グッド90M↓(まさにプログレッシブブレイクビーツ、いろんなの。)
試聴(外国サイトから許可をもらいリンクを引いています。)
http://www.nowsound.hu/mixes/
beatman_ludmilla-nowsound_exposure_the_requiem.mp3


拍手100M↓(プログレッシブブレイクビーツ色々。判別不可)
試聴(外国サイトから許可をもらいリンクを引いています。)
http://beatman.demoscene.hu/
beatman-nowsound_exposure_part2-switzerland.mp3



このジャンルは次世代テクノジャンルとして大注目です。(カッコよくって、メロディもきれいで、シンフォニックは感動しちゃうし!)
また、これらのMIXESを公開中のサイトは「BEATMAN WEBSITE」まで。

★このジャンルが好きになったらこのCDを買おう!↓
【テックビックビート】【ブレイクトランス】なら"BT"のアルバム
【シンフォニックブレイクス】【ブレイクトランス】なら"HYBRID"のアルバム
【ハウシーブレイクス】なら"WAY OUT WEST"のアルバム
を買うことをお勧めします。

曲を聴いた感想、コメント待ってます(コメントが多ければもったいぶらずにこのジャンルのMIXESをまた紹介しますw)
 また、よいMIXESだと思った人は「人気音楽ブログランキング」へ協力を。(どの記事から多くクリック協力してもらえるかによって、どのジャンルが人気かを判断させていただいています。)


一応↑で公開中のMIXESのTRACK LISTは続きを読むで。
★ "beatman-nowsound_exposure.mp3" MP3
TRACK 01 AUDIO
PERFORMER "Dienes 'Beatman' Gabor" - "2004"
INDEX 01 0:00:00
TRACK 02 AUDIO
PERFORMER "Hybrid" - "In good we trust (Soundtrack edit)"
INDEX 01 0:51:93
TRACK 03 AUDIO
PERFORMER "Hybrid" - "Blackout (Hybrid Y4K Mix)"
INDEX 01 2:18:24
TRACK 04 AUDIO
"PERFORMER "Beatman and Ludmilla" - "Delerium (Instrumental edit)
INDEX 01 10:05:60
TRACK 05 AUDIO
"Psure vs Qtek" - "The Forth"PERFORMER
INDEX 01 16:49:00
TRACK 06 AUDIO
PERFORMER "Cardigans" - "Rise up (Unsigned CDR)"
INDEX 01 23:32:77
TRACK 07 AUDIO
PERFORMER "U & K" - "Master Of Nuggets (Unsigned CDR)"
INDEX 01 28:17:57
TRACK 08 AUDIO
PERFORMER "Deep Dish" - "Flashdance (Meat Katie vocal remix)"
INDEX 01 33:35:37
TRACK 09 AUDIO
"PERFORMER "Alex Dolby" - "Hazy Way (Evil9 remix)
INDEX 01 38:03:82
TRACK 10 AUDIO
"PERFORMER "The Cult" - "She sells sanctuary
INDEX 01 44:42:70
TRACK 11 AUDIO
PERFORMER "Chris Carter" - "Rock-a-holic"
INDEX 01 51:37:77
TRACK 12 AUDIO
PERFORMER "Adam Freeland" - "Mindkiller (ILS remix)"
INDEX 01 56:00:39
TRACK 13 AUDIO
PERFORMER "Carganoid" - "Untitled (Carganoid vs Smoke promo)"
INDEX 01 60:40:32
TRACK 14 AUDIO
PERFORMER "Area 555" - "Contact (Original mix)"
INDEX 01 67:14:82


★"Beatman and Ludmilla presents Nowsound Exposure - The requiem"
TOTAL TIME: [58:45]
[00:00-04:35]01. She about love
7 hurtz - 3 Sisters
[04:35-10:00]02. Product 01 - I like it Loud
Water - Egypt
[10:00-18:00]03. Shpongle - Dorset Perception (Original mix)
[18:00-23:05]04. Blu Mar Ten - Rouge
[23:05-27:30]05. Tilt - Venus in Transit
[27:30-31:36]06. Tilt - Crescendo
[31:36-37:47]07. Andy Page - Skin up
[37:47-42:41]08. Rene Amesz - Fragile
[42:41-48:34]09. Dean Masi Feat.Tiffanie - Just a dream (Masi Mello Drago Dub)
[48:34-54:33]10. Conjure one - Center of the sun
[54:33-58:40]11. Anonymous - Romance for guitar (Jeux Interdits)


★"beatman-nowsound_exposure.mp3" MP3
[00:00:00]01. Dienes 'Beatman' Gabor - 2004
[00:51:93]02. Hybrid - In good we trust (Soundtrack edit)
[02:18:24]03. Blackout (Hybrid Y4K Mix) - Hybrid
[10:05:60]04. Beatman and Ludmilla - Delerium (Instrumental edit)
[16:49:00]05. Psure vs Qtek - The Forth
[23:32:77]06. Cardigans - Rise up (Unsigned CDR)
[28:17:57]07. U & K - Master Of Nuggets (Unsigned CDR)
[33:35:37]08. Deep Dish - Flashdance (Meat Katie vocal remix)
[38:03:82]09. Alex Dolby - Hazy Way (Evil9 remix)
[44:42:70]10. The Cult - She sells sanctuary
[51:37:77]11. Chris Carter - Rock-a-holic
[56:00:39]12. Adam Freeland - Mindkiller (ILS remix)
[60:40:32]13. Carganoid - Untitled (Carganoid vs Smoke promo)
[67:14:82]14. Area 555 - Contact (Original mix)

★"Nowsound Exposure Part 2: Switzerland"
FILE "beatman-nowsound_exposure_part2-switzerland.mp3" MP3
[00:00:00]01. Beatman and Ludmilla - Voyeur (Preview edit)
[02:20:00]02. John Creamer and Stephane K - I love you (Hybrid Claustrophobic mix)
[09:44:11]03. Hi-Fi Bugs - The knife drawer (Ryeland Allison Edit)
[17:09:30]04. Beatman and Ludmilla - Ghost in the Shell (Introduction)
[18:15:26]05. Beatman and Ludmilla - Ghost in the shell
[24:52:67]06. Delerium - Silence (Beatman and Ludmilla remix)
[31:58:70]07. Hi-Fi Bugs - Lydian & The Dinosaur
[40:32:59]08. Shiloh - I really want you (Original dub)
[48:11:37]09. Shiloh - Mana (Elite Force remix)
[55:18:34]10. Blu Mar Ten - Rouge
[59:11:67]11. Beatman and Ludmilla - Couldn't Sleep

4曲目と、5曲目の攻殻機動隊のテーマが『プログレッシブ・ブレイクビーツ』にアレンジされてるのがいいね。
ってことは菅野よう子が作る曲は『プログレッシブ・ブレイクビーツ』ってことだなw
| DJ_MIXES曲DL_03 | 06:19 | comments(2) | trackbacks(0) |
すっごいブログ発見!!!
私はハウス大好きなんですが☆
ハウスってそもそもなんだろー??
って思って探してたらこんな素敵なとこみつけちゃった☆
勉強させてもらいます☆☆☆
| sa-ko | 2005/10/17 3:12 PM |
初めまして。
ハウスって好きですか。ハウスはこれからも色々紹介しますね。ハウスに関しては奥が深いですから。

ぜひ勉強してください!
| body | 2005/10/19 4:36 PM |









http://blog.body4649.com/trackback/263452